Board index Entertainment Zone Movies Blue Iguana 2018 1080p AMZN WEB - DL DDP5 1 H 264 - NTG
UploadGIG.com
Download Fortune | DDLPal Downloads | Crack Download | Download Serial | Warez Download | Warez Download | Download Serial | Download Warez | WarezKeeper | Download Serial Crack | Download File Crack | Full Downloads

Blue Iguana 2018 1080p AMZN WEB - DL DDP5 1 H 264 - NTG

Download all the latest Movies, all in high quality (BluRay, HD, Dvdrip, TS, R5 ... etc).

PureDownload User avatar
Administrator
Administrator

Posts: 13374
Location: Provide PureDownload only!

Blue Iguana 2018 1080p AMZN WEB - DL DDP5 1 H 264 - NTG

Image


Release INFO:

Genre: Comedy
Duration: 90 Min.
Audio Stream: Dolby Digital
Video Stream: WEB-DL
Video Codec: MPEG-4 H.264 / AVC
Language/s (Audio): English

.: IMDb :.



.: Trailer :.



.: Plot :.

This anarchic thriller presents a crazy, off-kilter London of action, comedy and true love. Eddie, Paul and Katharine are cool, carefree characters in a world of absolute freedoms: freedom to steal, freedom to fire a gun, freedom to kill, and freedom to fall in love. And freedom never to be hurt-at least not seriously. Only the bad guys die. Sam Rockwell and Ben Schwartz play two London-bound buddies whose outrageous antics never have serious consequences. They always wriggle out of danger, with a wisecrack, a weapon and a smile. Eddie and Paul are two innocents abroad, except they're not innocent at all. They're low-level wise guys who never really have a grip on anything. The controlling intelligence in the story is Phoebe Fox's insecure lawyer, Katherine. She's always one step ahead of the game - but is she ready to fall in love?



General
Unique ID : 2564509097165709433664371392896315344 (0x1EDE80F7C4357EF7B372448A6C82FD0)
Complete name : Blue.Iguana.2018.1080p.AMZN.WEB-DL.DDP5.1.H.264-NTG.mkv
Format : Matroska
Format version : Version 4 / Version 2
File size : 4.17 GiB
Duration : 1h 40mn
Overall bit rate : 5 910 Kbps
Encoded date : UTC 2018-08-24 04:12:03
Writing application : mkvmerge v21.0.0 ('Tardigrades Will Inherit The Earth ) 64-bit
Writing library : libebml v1.3.5 + libmatroska v1.4.8
DURATION : 01:40:17.712000000
NUMBER_OF_FRAMES : 2224
NUMBER_OF_BYTES : 56965
_STATISTICS_WRITING_APP : mkvmerge v21.0.0 ('Tardigrades Will Inherit The Earth ) 64-bit
_STATISTICS_WRITING_DATE_UTC : 2018-08-24 04:12:03
_STATISTICS_TAGS : BPS DURATION NUMBER_OF_FRAMES NUMBER_OF_BYTES

Video
ID : 1
Format : AVC
Format/Info : Advanced Video Codec
Format profile : High@L4
Format settings, CABAC : Yes
Format settings, ReFrames : 4 frames
Codec ID : V_MPEG4/ISO/AVC
Duration : 1h 40mn
Bit rate : 5 153 Kbps
Width : 1 920 pixels
Height : 1 080 pixels
Display aspect ratio : 16:9
Frame rate mode : Constant
Frame rate : 23.976 fps
Color space : YUV
Chroma subsampling : 4:2:0
Bit depth : 8 bits
Scan type : Progressive
Bits/(Pixel*Frame : 0.104
Stream size : 3.63 GiB (87%)
Default : Yes
Forced : No
Color range : Limited
Color primaries : BT.709
Transfer characteristics : BT.709
Matrix coefficients : BT.709

Audio
ID : 2
Format : E-AC-3
Format/Info : Audio Coding 3
Format settings, Endianness : Big
Codec ID : A_EAC3
Duration : 1h 40mn
Bit rate mode : Constant
Bit rate : 640 Kbps
Channel(s : 6 channels
Channel positions : Front: L C R, Side: L R, LFE
Sampling rate : 48.0 KHz
Compression mode : Lossy
Stream size : 462 MiB (11%)
Language : English
Default : Yes
Forced : No

Text
ID : 3
Format : UTF-8
Codec ID : S_TEXT/UTF8
Codec ID/Info : UTF-8 Plain Text
Title : SDH
Language : English

https //www.imdb.com/title/tt2316479/

Default : No
Forced : No

Size:
4266 MB


Download Movie HERE

Image



Image



Image

Image

I recommend to download as fast as you can (It's better by Premium account) or you will lose file you need ( Links dead because of Copyright Infringement )

Return to Movies

Free Full Premium Downloads Crack, Serial, Keygen, Warez Downloads Warez Download
DirtyWarez | FreakDDL | FullDownload | FullReleases | FullVersions